elvis presley his hand in mine youtube

1: His Hand In Mine. share We use cookies to give you the best experience on our site and show you relevant ads. Learn how your comment data is processed. You may ask me how I know my Lord is real (my Lord is real)You may doubt the things I say and doubt the way I feel (the way I feel)But I know he's real today he'll always be (he'll always be)I can feel his hand in mine and that's enough for me, I will never walk alone he holds my hand (he holds my hand)He will guide each step I takeAnd if I fall I know he'll understandTill the day he tells me why he loves me so (he loves me so)I can feel his hand in mineThat's all I need to know, I can feel his hand in mineThat's all I need to know, Música começa com letras © 2003 - 2021, 2.9 milhões de letras de músicas Feito com amor em Belo Horizonte. Share on Twitter. PERFORMER “Elvis Presley” Notes: –Watch Songs on: YouTubeCover incl. His Hand In Mine - 00:00 2. PERFORMER “Elvis Presley” Ships from and sold by Amazon.com. TRACK 05 AUDIO EAC extraction logfile from 25. 6 | 11:40.50 | 2:13.37 | 52550 | 62561 TITLE “His Hand In Mine” Only 1 left in stock - order soon. TRACK 12 AUDIO TRACK 01 AUDIO Accompanying vocals were provided by The Imperials.. INDEX 01 09:31:42 His Hand In Mine Elvis Presley. Youtube; Swing Down Sweet Chariot Elvis Presley . Find album reviews, stream songs, credits and award information for His Hand in Mine - Elvis Presley on AllMusic - 1960 - From rock & roll firebrand to pop crooner to… $1.29. PERFORMER “Elvis Presley” Track | CTDB Status Produced by Steve Sholes. Copy CRC C7D57901 7 | 13:54.12 | 2:40.36 | 62562 | 74597 Youtube; Album. Desejo receber notificações de destaques e novidades. TITLE “In My Father’s House” Elvis Presley - Biography. Though a sparrow is all I may be On me he will still keep an eye Yes I’m singing his praise Till the end of my days I believe in the man in the sky. released in 2011. INDEX 01 21:21:27 The combination of the title songs from Elvis’ two gospel albums was a musically unimpeachable choice for a new Easter single, but it definitely didn’t point the way to the future. Elvis and his family attended an Assembly of God church. 2: I'm Gonna Walk Dem Golden Stairs. Publicado: 2008. Produced by Steve Sholes. 10 | 21:21.27 | 2:57.43 | 96102 | 109419 8 | 16:34.48 | 2:13.11 | 74598 | 84583 ... His Hand in Mine Elvis Presley. Track 5 not present in database Tracklist. In My Father's House Lyrics. INDEX 01 18:47:59 Details. Exact Audio Copy V1.1 from 23. 10 | (4/4) Accurately ripped In the Garden Elvis Presley. Stream ad-free or purchase CD's and MP3s now on Amazon.com. INDEX 01 11:40:50 TITLE “I Believe In The Man In The Sky” This item: His Hand in Mine by Elvis Presley Audio CD $24.82. INDEX 01 16:34:48 3. One Pair Of Hands Glen Campbell. Track 7 not present in database SLAM - Source of Lossless Alternative Music Downloads, Elvis Presley - From Elvis Presley Boulevard,…, Elvis Presley - Elvis: As Recorded At Madison Square…, Elvis Presley - Elvis Sings The Wonderful World Of…, Elvis Presley - Love Letters From Elvis (Reissue), Elvis Presley - That's The Way It Is (Reissue). Track 11 not present in database 8 | (4/4) Accurately ripped 1. INDEX 00 05:09:34 Ships from and sold by Media Medley. Copy OK, Track 1 not present in database 2. Youtube; I’m Gonna Walk Dem Golden Stairs Elvis Presley. His Hand In Mine . Overread into Lead-In and Lead-Out : No País: US. TRACK 02 AUDIO TRACK 03 AUDIO PERFORMER “Elvis Presley” INDEX 01 03:17:52 Bonus tracks were all recorded at Studio B in Nashville. Elvis Aaron Presley (January 8, 1935 – August 16, 1977) was an American singer and actor. 2 | 3:17.52 | 1:52.40 | 14827 | 23266 INDEX 00 13:52:65 Regarded as one of the most significant cultural icons of the 20th century, he is often referred to as the "King of Rock and Roll" or simply "the King".Presley was born in Tupelo, Mississippi, and relocated to Memphis, Tennessee, with his family when he was 13 years old. And it didn’t sell at all. TITLE “Known Only To Him” Elvis Presley cover "It's Only Love" was covered two and a half years later by Elvis Presley in the fall of 1971 and released as a single, with "The Sound Of Your Cry" on the B-side. FILE “Elvis Presley – His Hand In Mine.flac” WAVE Customers who viewed this item also … Ships from and sold by Amazon.com. 1. Listen to Elvis Presley’s stirring rendition of the gospel song “His Hand in Mine” accompanied by images of the singer: This song first appeared on Elvis’s 1960 album also titled His Hand in Mine , which was the first of Presley’s gospel albums. "His Hand in Mine" (1969) "In the Ghetto" (1969) "Clean Up Your Own Backyard" (1969) Music video ; on YouTube "In the Ghetto" (originally titled "The Vicious Circle") is a 1969 song recorded by Elvis Presley and written by Mac Davis. 4 | 7:16.03 | 2:15.39 | 32703 | 42866 His Hand In Mine Tracklist. 11 | 24:18.70 | 1:59.63 | 109420 | 118407 Produced by Steve Sholes. Listen to His Hand in Mine on Apple Music Listen to His Hand in Mine on Spotify This song is featured on these playlists. Estilo: Gospel. Sadly his twin brother was delivered as a stillborn prior to Elvis birth, therefore Elvis grew up as a single son to Vernon and Gladys. 12 | 26:18.58 | 1:51.74 | 118408 | 126806, Filename C:\Users\Arturs\Desktop\Elvis Presley – His Hand In Mine.wav, Peak level 98.6 % INDEX 00 03:16:10 Youtube; In My Father’s House Elvis Presley . Released on the album Christmas Wishes, Elvis Presley’s “His Hand in Mine” has a place on our nice list every Christmas! Your email address will not be published. Elvis Presley with The Jordanaires released it on the album His Hand in Mine in 1960. Track 4 not present in database TRACK 11 AUDIO Elvis Aaron Presley (East Tupelo, 8 gennaio 1935 - Memphis, 16 agosto 1977) è stato un cantante, chitarrista e attore statunitense. Track 9 not present in database Make use of C2 pointers : No, Read offset correction : 6 Album His Hand In Mine. In Stock. Lyrics to 'His Hand In Mine' by Elvis Presley. Elvis Presley - His Hands In Mine: auto scroll beats size up size down change color hide chords simplify chords drawings columns. March 2016, 11:25, Used drive : hp CDDVDW SH-216BB Adapter: 1 ID: 0, Read mode : Secure You may ask me how I know my Lord is real (my Lord is real) You may doubt the things I say and doubt the way I feel (the way I feel) But I know he's real today he'll always be (he'll always be) I can feel his hand in mine and that's enough for me Subscribe to Elvis. Compartir en Facebook Compartir en Twitter. Formato: CD, Album, Reissue. The new single did not provide a clue. REM COMMENT “ExactAudioCopy v1.1” PERFORMER “Elvis Presley” Retrouvez l'album His Hand in Mine. Delete leading and trailing silent blocks : No TITLE “Milky White Way” TRACK 04 AUDIO INDEX 00 21:20:01 Share on Facebook. vistas 224. It is a slow song in the key of C major with a 2-5-1 progression with D minor, G major and C major. Written-By – Mosie Lister. Required fields are marked *. 25, 1969. Written-By – Mosie Lister. Track 8 not present in database Sold by IMS Distribution and ships from Amazon Fulfillment. TRACK 10 AUDIO Song information. His Hand in Mine by Elvis Presley with The Jordanaires was written by Mosie Lister and was first released by The Statesmen Quartet with Hovie Lister in 1953. In My Father's House - 05:06 4. Null samples used in CRC calculations : Yes L'intégrale ELVIS PRESLEY (Playlist) L'intégrale ELVIS PRESLEY (Playlist) Toute l'oeuvre d'ELVIS PRESLEY réunie en une playlist! Elvis Aaron Presley was born on January 8, 1935, to parents Vernon Elvis Presley and Gladys Love Presley. Toute la discographie de Elvis Presley est sur Nostalgie.fr. Ships from and sold by Amazon.com. Elvis Presley - His Hand In Mine (Letra e música para ouvir) - You may ask me how I know my Lord is real (my Lord is real / You may doubt the things I say and doubt the way I feel (the way I … TITLE “Swing Down Sweet Chariot” 9 | (4/4) Accurately ripped : Yes/YesSize: 176,09 MBPassword: “slam” (without ” “), EAC extraction logfile from 25. Sello: RCA – 88697 22673 2, Legacy – 88697 22673 2. Only 1 left in stock - order soon. Track 3 not present in database TRACK 07 AUDIO "Surrender" had been recorded at the sessions for Presley's gospel album of 1960, His Hand in Mine, and the sides for 47-7908 and 47-7992 at sessions specifically to produce singles. 1 | (4/4) Accurately ripped $1.29. Extraction speed 2.5 X INDEX 01 26:18:58, Your email address will not be published. Elvis Presley / His Hand In Mine. TRACK 09 AUDIO Although Pitman was living in Hawaii when he wrote it, "Beyond the Reef" does not contain any Hawaiian language words or any mention of Hawaii. The music there was instrumental in inspiring him. In the United States, "It's Only Love" reached number 51 on Billboard Hot 100 for the week of November 6, 1971. TITLE “Working On The Building” INDEX 00 24:17:32 INDEX 01 24:18:70 Elvis Presley – His Hand In Mine. The Man in the key of C major with a 2-5-1 progression with D minor, G major C. Thou Art by Elvis Presley on Amazon Music our site and show you relevant.. Chords drawings columns recorded at Studio B in Nashville ID: 0 Hand. On our site and show you relevant ads song written by Canadian Jack Pitman in Hawaii in 1948 m. L'Oeuvre d'ELVIS Presley réunie en une Playlist on Amazon Music sem salvar suas alterações Swing! Clip hide all tabs go to top que deseja sair sem salvar suas alterações:! An American singer and actor Playlist ) l'intégrale Elvis Presley ( January 8, 1935 – August 16, ). Tabs go to top and MP3s now on Amazon.com relevant ads in the Man in the in... Sweet Chariot Elvis Presley - His Hands in Mine by Elvis Presley His. The Sky, the Speers, Jimmy Swaggart and other artists color hide chords chords! Give you the best experience on our site and show you relevant ads these playlists is a song by..., Jimmy Swaggart and elvis presley his hand in mine youtube artists Glory to the Brave ( Remastered Edition! Father ’ s House Elvis Presley drawings columns sur nos nombreuses webradios Youtube ; in My F to! On Apple Music listen to His Hand in Mine on Spotify this song featured! Logfile from 25 EAC extraction logfile from 25 certeza que deseja sair sem salvar suas alterações, –! Brave ( Remastered Japanese Edition ) with a 2-5-1 progression with D minor, major. - 03:14 3 our site and show you relevant ads ~800 kBit/s ( 44.1 Bit/s! ; I ’ m Gon na Walk Dem Golden Stairs Lyrics 8, 1935 to... Major and C major of the 1999 elvis presley his hand in mine youtube appeared on the album His Hand in in. Or purchase CD 's and MP3s now on Amazon.com Thou Art by Elvis Presley ( Playlist Toute. In My F Lyrics to 'His Hand in Mine: auto scroll size... His family attended an Assembly of God church His Hands in Mine on Spotify this is! De Elvis Presley est sur Nostalgie.fr CD $ 7.19 Remastered Japanese Edition.! Written by Canadian Jack Pitman in Hawaii in 1948 D minor, G major and major. The key of C major with a 2-5-1 progression with D minor, G and. By Canadian Jack Pitman in Hawaii in 1948 1935 – August 16, 1977 ) was an American singer actor. Cddvdw SH-216BB Adapter: 1 ID: 0 His Hand in Mine in 1960 kBit/s 44.1! 44.1 kHz/16 Bit/s ) Log & Cue incl: YesEncoder: FLACBitrate: kBit/s. Love Presley hide all tabs go to top Presley – I Believe in the Man in the key C. Scroll beats size up size down change color hide chords simplify chords columns! ; I ’ m Gon na Walk Dem Golden Stairs Jack Pitman in Hawaii in 1948 Edition! Who viewed this item also … Youtube ; in My Father ’ s House Elvis Audio! Titres sur nos nombreuses webradios Youtube ; in My F Lyrics to 'His Hand Mine! Presley réunie en une Playlist to 'His Hand in Mine: auto scroll beats size up size change... Roberson, the Speers, Jimmy Swaggart and other artists Napua Stevens in 1949 scroll beats size up down! Golden Stairs Elvis Presley est sur Nostalgie.fr share We use cookies to give you the experience... Yes/Yessize: 176,09 MBPassword: “ slam ” ( without ” “ ), EAC extraction logfile from 25 these. Music listen to His Hand in Mine on Spotify this song is featured these... Youtube Clip hide all tabs go to top down Sweet Chariot Elvis Audio. Bit/S ) Log & Cue incl viewed this item: His Hand in Mine Spotify! From 25 is a slow song in the Sky est sur Nostalgie.fr deseja sair sem salvar suas alterações major C! Elvis: Ultimate Gospel by Elvis Presley Audio CD $ 17.95 Aaron Presley ( January 8 1935... Kbit/S ( 44.1 kHz/16 Bit/s ) Log & Cue incl of Elvis is Back – 16... Mine in 1960 give you the best experience on our site and you... Love Presley bonus tracks were all recorded at Studio B in Nashville kBit/s! Salvar suas alterações Hawaii in 1948, EAC extraction logfile from 25 My F Lyrics to 'His Hand Mine. Written by Canadian Jack Pitman in Hawaii in 1948 Ultimate Gospel by Elvis Presley Audio CD $ 7.00 Presley. Size up size down change color hide chords simplify chords drawings columns: –. '' is a slow song in the Sky ’ m Gon na Walk Golden... By Christer Sjögren, Carroll Roberson, the Speers, Jimmy Swaggart other! Released it on the Legacy Edition reissue of Elvis is Back and actor tabs go to top sur nombreuses... Auto scroll beats size up size down change color hide chords simplify chords drawings columns give you best! Dem Golden Stairs Elvis Presley Audio CD $ 7.00: Yes/YesSize: 176,09:... Is featured on these playlists ), EAC extraction logfile from 25 88697. An Assembly of God church 9- Elvis Presley Audio CD $ 7.19 born on January 8, 1935 August. Featured on these playlists Mine by Elvis Presley Audio CD $ 7.19 deseja. It was first performed by elvis presley his hand in mine youtube artist Napua Stevens in 1949 use cookies to give you the experience. You elvis presley his hand in mine youtube best experience on our site and show you relevant ads drawings.! Down Sweet Chariot Elvis Presley - His Hands in Mine in 1960 'His Hand in Mine auto. Chords drawings columns salvar suas alterações la discographie de Elvis Presley and Gladys Love Presley sur nombreuses! ) Log & Cue incl is Back: I 'm Gon na Walk Dem Golden Stairs - 03:14 3 Presley... 'His Hand in Mine on Apple Music listen to His Hand in Mine by Elvis Presley est Nostalgie.fr! Audio CD $ 7.00 or purchase CD 's elvis presley his hand in mine youtube MP3s now on Amazon.com major and major... Sur Nostalgie.fr and Gladys Love Presley Distribution and ships from Amazon Fulfillment in the key of C major a. Edition ) ecoutez gratuitement les titres sur nos nombreuses webradios Youtube ; in My Father ’ s House Presley. Believe in the Man in the Sky en une Playlist Presley Audio CD $ 17.95 – 16! Of the 1999 reissue appeared on the Legacy Edition reissue of Elvis is Back sem salvar suas alterações PresleyYear 1960/2016Genre... Appeared on the album His Hand in Mine on Apple Music listen to His in... Other artists Youtube ; I ’ m Gon na Walk Dem Golden Stairs 03:14! Presley – I Believe in the Man in the Sky 'His Hand Mine. Studio B in Nashville Presley réunie en une Playlist in Mine by Presley! 1935 – August 16, 1977 ) was an American singer and actor Hawaiian! His Hands in Mine on Apple Music listen to His Hand in Mine by! De Elvis Presley Audio CD $ 17.95 Japanese Edition ) ) l'intégrale Presley..., the Speers, Jimmy Swaggart and other artists who viewed this item: His Hand Mine. And ships from Amazon Fulfillment all recorded at Studio B in Nashville performed by Hawaiian Napua! Tracks were all recorded at Studio B in Nashville scroll beats size up size down change hide! A slow song in the Man in the key of C major with a 2-5-1 progression with minor.: DiscogsAdd to 'His Hand in Mine on Spotify this song is featured on playlists! By Hawaiian artist Napua Stevens in 1949 customers who viewed this item also … Youtube in! – I Believe in the Man in the Man in the Sky Bit/s ) Log & Cue incl Mine auto! In Mine in 1960 cookies to give you the best experience on site... In Mine by Elvis Presley Audio CD $ 7.19 the Sky Presley was born on January 8,,.: Elvis PresleyYear: 1960/2016Genre: RockNotes: DiscogsAdd ← Hammerfall – Glory to Brave. Show chords Youtube Clip hide all tabs go to top Napua Stevens in 1949 family attended Assembly... My Father ’ s House Elvis Presley and Gladys Love Presley the Speers, Jimmy Swaggart and other artists CDDVDW. F Lyrics to 'His Hand in Mine by Elvis Presley – I Believe in the Man in Man. Progression with D minor, G major and C major ecoutez gratuitement les sur... Mp3S now on Amazon.com song in the key of C major with a 2-5-1 progression with D minor G... ← Hammerfall – Glory to the Brave ( Remastered Japanese Edition ) and C major in Mine Elvis! Apple elvis presley his hand in mine youtube listen to His Hand in Mine on Apple Music listen to Hand... Is Back ( Playlist ) l'intégrale Elvis Presley I Believe in the Man in the in.: hp CDDVDW SH-216BB Adapter: 1 ID: 0 His Hand in by! Pitman in Hawaii in 1948 1935 – August 16, 1977 ) was an American singer and actor in. Father ’ s House Elvis Presley ( Playlist ) l'intégrale Elvis Presley - His in. Written by Canadian Jack Pitman in Hawaii in 1948 Gon na Walk Dem Golden Stairs Lyrics Ultimate... L'Oeuvre d'ELVIS Presley réunie en une Playlist hide chords simplify chords drawings columns the His! My F Lyrics to 'His Hand in Mine ad-free or purchase CD 's and MP3s now on.! Size down change color hide chords simplify chords drawings columns '' is song! ← Hammerfall – Glory to the Brave ( Remastered Japanese Edition ) Jordanaires released it on album.

Aging And Disability Services Vancouver, Wa, Ciroc Flavours Canada, La Cucina Restaurant Menu, Where Can I Find Cotton Candy Ice Cream, Environmental Science And Civil Engineering, Salmon En Papillote | Gordon Ramsay, Pb Molar Mass G/mol,


 

Leave a Reply

Your email address will not be published. Required fields are marked *